* Dettagli Torrent   globale  | Commenti (0) 


- Bambi (1942).H264.italian.english.Ac3-5.1.sub.ita-MIRCrew -


Download via torrent:
Categoria bittorrent BDRip
Descrizione
Bambi (1942).H264.italian.english.Ac3-5.1.sub.ita-MIRCrew



NO FOUND ONLY ORIGINAL RELEASE

My release is always in double track audio italian and Original audio
for select it use VLC or dvd player home
not use wmp

Bambi (1942)










*******************************************



I protagonisti sono Bambi, un cervo dalla coda bianca, i suoi genitori (il Grande Principe della foresta e la madre senza nome), i suoi amici Tamburino (un coniglio dal naso rosa), Fiore (una moffetta) e la sua amica d'infanzia e futura compagna Faline.




The story of a young deer growing up in the forest.









General
Unique ID                                : 191109198273542011987723725195150213498 (0x8FC64AF2568A801D967421CFB959C17A)
Complete name                            : Bambi (1942).h264.ita.eng.sub.ita-MIRCrew\Bambi (1942)h264.ita.eng.sub.ita-MIRCrew.mkv
Format                                   : Matroska
Format version                           : Version 2
File size                                : 1.07 GiB
Duration                                 : 1h 9mn
Overall bit rate                         : 2 200 Kbps
Movie name                               : MIRCrew
Encoded date                             : UTC 2018-09-03 17:09:46
Writing application                      : Lavf54.63.100
Writing library                          : Lavf54.63.100
COPYRIGHT                                : robbyrs

Video
ID                                       : 1
Format                                   : AVC
Format/Info                              : Advanced Video Codec
Format profile                           : [email protected]
Format settings, CABAC                   : Yes
Format settings, ReFrames                : 2 frames
Codec ID                                 : V_MPEG4/ISO/AVC
Duration                                 : 1h 9mn
Bit rate                                 : 1 300 Kbps
Width                                    : 704 pixels
Height                                   : 528 pixels
Display aspect ratio                     : 4:3
Frame rate mode                          : Variable
Frame rate                               : 23.976 fps
Color space                              : YUV
Chroma subsampling                       : 4:2:0
Bit depth                                : 8 bits
Scan type                                : Progressive
Bits/(Pixel*Frame)                       : 0.146
Stream size                              : 630 MiB (57%)
Writing library                          : x264 core 130 r2273
Encoding settings                        : cabac=1 / ref=2 / deblock=1:0:0 / analyse=0x1:0x131 / me=hex / subme=7 / psy=1 / psy_rd=1.00:0.00 / mixed_ref=0 / me_range=16 / chroma_me=1 / trellis=1 / 8x8dct=0 / cqm=0 / deadzone=21,11 / fast_pskip=1 / chroma_qp_offset=-2 / threads=3 / lookahead_threads=1 / sliced_threads=0 / nr=0 / decimate=1 / interlaced=0 / bluray_compat=0 / constrained_intra=0 / bframes=3 / b_pyramid=0 / b_adapt=1 / b_bias=0 / direct=3 / weightb=1 / open_gop=0 / weightp=2 / keyint=230 / keyint_min=23 / scenecut=40 / intra_refresh=0 / rc_lookahead=40 / rc=abr / mbtree=1 / bitrate=1300 / ratetol=1.0 / qcomp=0.60 / qpmin=10 / qpmax=69 / qpstep=4 / vbv_maxrate=24000 / vbv_bufsize=24000 / nal_hrd=none / ip_ratio=1.40 / aq=1:1.00
Language                                 : Italian
Default                                  : Yes
Forced                                   : No
DURATION                                 : 01:09:51.813000000
NUMBER_OF_FRAMES                         : 100503
NUMBER_OF_BYTES                          : 1928184335
_STATISTICS_WRITING_APP                  : mkvmerge v9.8.0 ('Kuglblids') 64bit
_STATISTICS_WRITING_DATE_UTC             : 2017-02-08 01:00:00
_STATISTICS_TAGS                         : BPS DURATION NUMBER_OF_FRAMES NUMBER_OF_BYTES

Audio #1
ID                                       : 2
Format                                   : AC-3
Format/Info                              : Audio Coding 3
Mode extension                           : CM (complete main)
Codec ID                                 : A_AC3
Duration                                 : 1h 9mn
Bit rate mode                            : Constant
Bit rate                                 : 448 Kbps
Channel(s)                               : 6 channels
Channel positions                        : Front: L C R, Side: L R, LFE
Sampling rate                            : 48.0 KHz
Bit depth                                : 16 bits
Compression mode                         : Lossy
Delay relative to video                  : 1mn 5s
Stream size                              : 224 MiB (20%)
Language                                 : Italian
Default                                  : Yes
Forced                                   : No
DURATION                                 : 01:09:51.872000000
NUMBER_OF_FRAMES                         : 130996
NUMBER_OF_BYTES                          : 335349760
_STATISTICS_WRITING_APP                  : mkvmerge v9.8.0 ('Kuglblids') 64bit
_STATISTICS_WRITING_DATE_UTC             : 2017-02-08 01:00:00
_STATISTICS_TAGS                         : BPS DURATION NUMBER_OF_FRAMES NUMBER_OF_BYTES

Audio #2
ID                                       : 3
Format                                   : AC-3
Format/Info                              : Audio Coding 3
Mode extension                           : CM (complete main)
Codec ID                                 : A_AC3
Duration                                 : 1h 9mn
Bit rate mode                            : Constant
Bit rate                                 : 448 Kbps
Channel(s)                               : 6 channels
Channel positions                        : Front: L C R, Side: L R, LFE
Sampling rate                            : 48.0 KHz
Bit depth                                : 16 bits
Compression mode                         : Lossy
Delay relative to video                  : 1mn 5s
Stream size                              : 224 MiB (20%)
Language                                 : English
Default                                  : No
Forced                                   : No
DURATION                                 : 01:09:51.872000000
NUMBER_OF_FRAMES                         : 130996
NUMBER_OF_BYTES                          : 335349760
_STATISTICS_WRITING_APP                  : mkvmerge v9.8.0 ('Kuglblids') 64bit
_STATISTICS_WRITING_DATE_UTC             : 2017-02-08 01:00:00
_STATISTICS_TAGS                         : BPS DURATION NUMBER_OF_FRAMES NUMBER_OF_BYTES

Menu
00:00:00.000                             : :Chapter 1
00:01:19.204                             : :Chapter 2
00:05:13.146                             : :Chapter 3
00:08:19.874                             : :Chapter 4
00:09:50.840                             : :Chapter 5
00:13:53.457                             : :Chapter 6
00:15:56.914                             : :Chapter 7
00:19:50.772                             : :Chapter 8
00:24:25.422                             : :Chapter 9
00:27:16.092                             : :Chapter 10
00:28:26.079                             : :Chapter 11
00:30:37.043                             : :Chapter 12
00:34:07.962                             : :Chapter 13
00:35:29.627                             : :Chapter 14
00:41:00.123                             : :Chapter 15
00:41:57.597                             : :Chapter 16
00:43:28.980                             : :Chapter 17
00:46:07.847                             : :Chapter 18
00:47:24.549                             : :Chapter 19
00:52:25.475                             : :Chapter 20
00:53:40.800                             : :Chapter 21
00:55:30.201                             : :Chapter 22
00:57:40.956                             : :Chapter 23
01:03:16.250                             : :Chapter 24
01:07:17.991                             : :Chapter 25





Info: Per scaricare devi usare un client come uTorrent o Transmission
AnnounceURL
udp://tracker.coppersurfer.tk:6969/announce
Hash 8384dd45cdc7b7be833a0d8ba3a498bdfbda213a
Peers seeds: 23 , leech: 5
Size 1.07 GB
Completato 365x
Aggiunto 10.10.18 - 12:10:53
Uploader   robbyrs
Votazione (Voti: 0)


Condividi questo bittorrent:


html/blog:


bbcode/forum:




Aggiungi Commento


counter