* Dettagli Torrent   globale  | Commenti (1) 


- Dacci un taglio (2018).720p.H264.italian.english.Ac3-5.1.sub.ita.eng-MIRCrew -


Download via torrent:
Categoria bittorrent BDRip
Descrizione
Nappily Ever After - Dacci un taglio (201.720p.H264.italian.english.Ac3-5.1.sub.ita.eng-MIRCrew

by www.mircrew-releases.com


NO FOUND ONLY ORIGINAL RELEASE

My release is always in double track audio italian and Original audio
for select it use VLC or dvd player home
not use wmp

Dacci un taglio - Nappily Ever After (201

Quality MIRCrew on HD 720p da  1,7 gb








GENERE: Commedia, Drammatico
ANNO: 2018
REGIA: Haifaa Al Mansour
PAESE: USA
DURATA: 98 Min



Sanaa Lathan, Ernie Hudson, Lyriq Bent, Lynn Whitfield, Ricky Whittle, Camille Guaty, Kiley Casciano, Catherine Dyer, Jen Harper, Danielle Lyn



Dacci un taglio, diretto da Haifaa Al-Mansour, è la storia di Violet Jones (Sanaa Lathan) e del suo mondo apparentemente perfetto: ha un lavoro prestigioso, un fidanzato medico fantastico e una chioma stupenda, da sempre curata con attenzione. Quando un evento fondamentale della sua vita non va secondo i suoi piani, tutto sembra andare a rotoli, compresi i suoi capelli.



Violet Jones tired of waiting for her longtime boyfriend to propose, breaks up with him. But old feelings, and heaps of jealousy, no doubt, arise when he promptly begins dating another woman.  










General
Unique ID                                : 112850828011256696109331585654969025257 (0x54E64765703BB0139BA213F2F99F42E9)
Complete name                            : Dacci un taglio - Nappily Ever After (201.720p.h264.ita.eng.sub.ita.eng-MIRCrew\Dacci un taglio - Nappily Ever After (201.720p.h264.ita.eng.sub.ita.eng-MIRCrew.mkv
Format                                   : Matroska
Format version                           : Version 2
File size                                : 1.75 GiB
Duration                                 : 1h 38mn
Overall bit rate                         : 2 541 Kbps
Movie name                               : Dacci un taglio (201
Encoded date                             : UTC 2018-09-26T07:22:48Z
Writing application                      : HandBrake 0.10.5 2016021100
Writing library                          : Lavf55.12.0

Video
ID                                       : 1
Format                                   : AVC
Format/Info                              : Advanced Video Codec
Format profile                           : [email protected]
Format settings, CABAC                   : Yes
Format settings, ReFrames                : 4 frames
Codec ID                                 : V_MPEG4/ISO/AVC
Duration                                 : 1h 38mn
Bit rate                                 : 1 800 Kbps
Width                                    : 1 280 pixels
Height                                   : 640 pixels
Display aspect ratio                     : 2.000
Frame rate mode                          : Variable
Frame rate                               : 23.976 fps
Color space                              : YUV
Chroma subsampling                       : 4:2:0
Bit depth                                : 8 bits
Scan type                                : Progressive
Bits/(Pixel*Frame)                       : 0.092
Stream size                              : 1.19 GiB (68%)
Writing library                          : x264 core 142 r2479 dd79a61
Encoding settings                        : cabac=1 / ref=3 / deblock=1:0:0 / analyse=0x3:0x113 / me=hex / subme=7 / psy=1 / psy_rd=1.00:0.00 / mixed_ref=1 / me_range=16 / chroma_me=1 / trellis=1 / 8x8dct=1 / cqm=0 / deadzone=21,11 / fast_pskip=1 / chroma_qp_offset=-2 / threads=6 / lookahead_threads=1 / sliced_threads=0 / nr=0 / decimate=1 / interlaced=0 / bluray_compat=0 / constrained_intra=0 / bframes=3 / b_pyramid=2 / b_adapt=1 / b_bias=0 / direct=1 / weightb=1 / open_gop=0 / weightp=2 / keyint=240 / keyint_min=24 / scenecut=40 / intra_refresh=0 / rc_lookahead=40 / rc=abr / mbtree=1 / bitrate=1800 / ratetol=1.0 / qcomp=0.60 / qpmin=0 / qpmax=69 / qpstep=4 / vbv_maxrate=62500 / vbv_bufsize=78125 / nal_hrd=none / filler=0 / ip_ratio=1.40 / aq=1:1.00
Default                                  : Yes
Forced                                   : No
Color primaries                          : BT.709-5, BT.1361, IEC 61966-2-4, SMPTE RP177
Transfer characteristics                 : BT.709-5, BT.1361
Matrix coefficients                      : BT.709-5, BT.1361, IEC 61966-2-4 709, SMPTE RP177

Audio #1
ID                                       : 2
Format                                   : AC-3
Format/Info                              : Audio Coding 3
Mode extension                           : CM (complete main)
Codec ID                                 : A_AC3
Duration                                 : 1h 38mn
Bit rate mode                            : Constant
Bit rate                                 : 384 Kbps
Channel(s)                               : 6 channels
Channel positions                        : Front: L C R, Side: L R, LFE
Sampling rate                            : 48.0 KHz
Bit depth                                : 16 bits
Compression mode                         : Lossy
Delay relative to video                  : 1mn 5s
Stream size                              : 271 MiB (15%)
Title                                    : Surround
Language                                 : Italian
Default                                  : Yes
Forced                                   : No

Audio #2
ID                                       : 3
Format                                   : AC-3
Format/Info                              : Audio Coding 3
Mode extension                           : CM (complete main)
Codec ID                                 : A_AC3
Duration                                 : 1h 38mn
Bit rate mode                            : Constant
Bit rate                                 : 384 Kbps
Channel(s)                               : 6 channels
Channel positions                        : Front: L C R, Side: L R, LFE
Sampling rate                            : 48.0 KHz
Bit depth                                : 16 bits
Compression mode                         : Lossy
Delay relative to video                  : 1mn 5s
Stream size                              : 271 MiB (15%)
Title                                    : Surround
Language                                 : English
Default                                  : No
Forced                                   : No



Info: Per scaricare devi usare un client come uTorrent o Transmission
AnnounceURL
udp://tracker.coppersurfer.tk:6969/announce
Hash 81bfc6198128da7bb03fb6e9bd97608d18e45d47
Peers seeds: 75 , leech: 22
Size 1.75 GB
Completato 942x
Aggiunto 08.10.18 - 18:10:51
Uploader   robbyrs
Votazione (Voti: 0)


Condividi questo bittorrent:


html/blog:


bbcode/forum:




Aggiungi Commento
Ultimi commenti
 RoyverminRoyvermin   
Grazie 1000
09/10 20.29
Tutti commenti (1)


counter