ilCorSaRoNeRo.cc - iTALiAN Torrent Search Engine RSS FEED il|CorSaRo|NeRo http://ilcorsaronero.cc Mon, 10 Dec 2018 23:08:18 +0200 (c) 2018 ilCorSaRoNeRo.cc - iTALiAN Torrent Search Engine VA - POP MUSIC FROM THE 00S (2018) Mp3 [320kbps] [Musica] [Seed (1)/Leech (0)]


Artist: Various Performers
Title: Pop Music From The 00s
Label: Warner Music Group - X5 Music Group
Style: Alternative, Country, Indie, Folk, Soul, Post-Punk, New Wave, Ska
Release Date: 07-12-2018
Format: CD, Compilation
Quality: 320 Kbps/Joint Stereo/44100Hz
Codec: MP3
Tracks: 27 Tracks
Time: 01:38:48 Min
Size: 232 MB

Tracklist:
01. Travie Mccoy - We'll Be Alright 3:18
02. All Saints - Pure Shores 4:29
03. Ceelo Green - F**K You 3:43
04. Eliza Doolittle - Pack Up 3:11
05. Gym Class Heroes - Cupid's Chokehold / Breakfast In America 3:56
06. Paris Hilton - Stars Are Blind 3:57
07. Daniel Powter - Bad Day 3:55
08. Gabrielle Aplin - Please Don't Say You Love Me 3:01
09. Kylie Minogue - Can't Get You Out Of My Head 3:52
10. Boyzone - Love Will Save The Day 3:13
11. Mans Zelmerlow - Happyland 3:20
12. Cody Simpson - Pretty Brown Eyes 2:48
13. Peter Cincotti - Goodbye Philadelphia 4:12
14. Alanis Morissette - Hand In My Pocket 3:42
15. Jason Castro - Let's Just Fall In Love Again 3:29
16. Uncle Kracker - Follow Me 3:35
17. Sabina Ddumba - Not Too Young 4:04
18. Becky Hill - Losing 3:54
19. Tyler Hilton - I Believe In You 4:12
20. Ryan Star - Start A Fire 3:19
21. Nano - Perfect Melody 3:24
22. Lenny Kravitz - Superlove 3:29
23. Matchbox Twenty - Unwell 3:54
24. Andreas Johnson - Sing For Me 3:06
25. Guy Sebastian & Lupe Fiasco - Battle Scars 4:10
26. Lupe Fiasco - The Show Goes On 4:00
27. Sia - Under The Milky Way 3:34]]>
http://ilcorsaronero.cc/tor/139696/VA___POP_MUSIC_FROM_THE_00S__2018__Mp3__320kbps_ http://ilcorsaronero.cc/tor/139696/VA___POP_MUSIC_FROM_THE_00S__2018__Mp3__320kbps_ Mon, 10 Dec 2018 22:32:53 +0200
The Tomb Raider Suite Soundtrack (2018) Mp3 [320kbps] [Musica] [Seed (1)/Leech (0)]


Genre: Score
Date: 2018
Country: USA
Audio codec: MP3
Quality: 320 kbs
Playtime: 1:32:36

01. The Temple of Xian (2:1
02. Tomb Raider Theme (3:14)
03. Where the Depths Unfold (1:54)
04. A Friend Since Gone (3:00)
05. The T-Rex (3:07)
06. A Long Way Down (3:26)
07. Longing for Home (3:09)
08. Time to Run (3:24)
09. Tomb Raider 2 Theme (3:0
10. Vertigo (3:34)
11. Venice (2:57)
12. Lara (3:50)
13. The Skidoo (3:05)
14. Precious Moments (5:45)
15. Tomb Raider 3 Theme (2:20)
16. The Puzzle Element (3:55)
17. Something Spooky in That Jungle (3:46)
18. Tony the Loon (2:5
19. The Cavern Sewers (3:06)
20. She’s Cool (3:07)
21. In the Blood (3:57)
22. Tomb Raider Medley (7:26)
23. Tomb Raider 2 Medley (7:44)
24. Tomb Raider 3 Medley (8:2]]>
http://ilcorsaronero.cc/tor/139695/The_Tomb_Raider_Suite_Soundtrack__2018__Mp3__320kbps_ http://ilcorsaronero.cc/tor/139695/The_Tomb_Raider_Suite_Soundtrack__2018__Mp3__320kbps_ Mon, 10 Dec 2018 21:30:35 +0200
David Guetta feat. Kid Cudi - Memories (2010) Mp3 [320kbps] [Musica] [Seed (2)/Leech (1)]


TRACKLIST

01. David Guetta Feat. Kid Cudi - Memories (3:30)
02. David Guetta Feat. Kid Cudi - Memories (FMIF Remix) [6:05]]]>
http://ilcorsaronero.cc/tor/139694/David_Guetta_feat__Kid_Cudi___Memories__2010__Mp3__320kbps_ http://ilcorsaronero.cc/tor/139694/David_Guetta_feat__Kid_Cudi___Memories__2010__Mp3__320kbps_ Mon, 10 Dec 2018 20:24:52 +0200
Suspiria (40th Anniversary) (4K Remaster Uncut) (BDRip 1080p - Ita Aac 5.1 Eng Aac 2.0 Subs) [BDRiP] [Seed (2)/Leech (0)] Suspiria (40th Anniversary Edition)

(4K Remaster Uncut)[/SIZE]




[b][color=blue]Info Film:

Titolo originale: Suspiria
Nazione: Italy
Anno: 1977
Regia: Dario Argento
Genere: Horror
Durata: 95'
Cast: Jessica Harper, Stefania Casini, Miguel Bosé, Barbara Magnolfi, Alida Valli

Info:
Risoluzione: 1920 x 808
Fps: 23.976
Video: x264
Audio: ITA Aac 5.1 from DTSHD / ENG AAC 2.0 from DTSHD
Subs: ITA / ENG

Trama:
Susy Benner vuole specializzarsi in una prestigiosa scuola. Ma tutto non è come sembra.

Il campo minato dei Bluray di Suspiria:
Innumerevoli sono i BluRay usciti nel corso degli anni da parte delle più svariate Label
e innumerevoli sono stati i problemi di qualità, da scansioni con poco dettaglio a palette
super saturate e distorte fino a bilanciamento toni talmente sballati da bruciarne un'intera gamma.

Poi arriva la Synapse, 3 persone in totale. La passione.
Il processo che riparte dalle pellicole originali a 3 strisce.
Ed il risultato, il film trasformato in uno standard odierno, dettagli e colori perfetti, saturazione in totale linea con la storia.
Una gioia per gli occhi, un risultato talmente moderno che non si puo' far altro che dire bravi.

BluRay:


Release:


Screenshots:


Report:[spoiler]
[ About file ]

Name: Suspiria (40th Anniversary) (4K Remaster Uncut) (Argento, 1977) - (BDRip 1080p - Ita Aac 5.1 from DTSHD Eng Aac 2.0 from DTSHD - SubIta SubEng).mkv
Date: Sun, 04 Feb 2018 08:05:06 +0100
Size: 4,698,936,541 bytes (4481.255094 MiB)

[ Magic ]

File type: data

[ Generic infos ]

Duration: 01:38:47 (5927.305 s)
Container: matroska
Production date: Sun, 04 Feb 2018 08:02:18 +0100
Total tracks: 5
Track nr. 1: video (V_MPEG4/ISO/AVC) {eng}
Track nr. 2: audio (A_AAC) [Ita Aac 5.1] {ita}
Track nr. 3: audio (A_AAC) [Eng aac 2.0] {eng}
Track nr. 4: subtitle (S_TEXT/ASS) [Ita] {ita}
Track nr. 5: subtitle (S_TEXT/ASS) [Eng] {eng}
Muxing library: libebml v1.3.5 + libmatroska v1.4.8
Writing application: mkvmerge v20.0.0 ('I Am The Sun&#39 32-bit

[ Relevant data ]

Resolution: 1920 x 808
Width: multiple of 32
Height: multiple of 8
Average DRF: 22.679973
Standard deviation: 1.950344
Std. dev. weighted mean: 1.93529

[ Video track ]

Codec ID: V_MPEG4/ISO/AVC
Resolution: 1920 x 808
Frame aspect ratio: 240:101 = 2.376238 (~2.35:1)
Pixel aspect ratio: 1:1 = 1
Display aspect ratio: 240:101 = 2.376238 (~2.35:1)
Framerate: 23.976024 fps
Stream size: 4,206,334,835 bytes (4011.473498 MiB)
Duration (bs): 01:38:47 (5927.296328 s)
Bitrate (bs): 5677.239136 kbps
Qf: 0.152633

[ Audio track nr. 1 ]

Codec ID: A_AAC
Sampling frequency: 48000 Hz
Channels: 6
Stream size: 358,497,209 bytes (341.889581 MiB)
Bitstream type (bs): AAC LC (Low Complexity)
Frames (bs): 277,841
Duration (bs): 01:38:47 (5927.274667 s)
Chunk-aligned (bs): Yes
Bitrate (bs): 483.861105 kbps VBR
Sampling frequency (bs): 48000 Hz
Mode (bs): 6: front-center, front-left, front-right, back-left, back-right, LFE-channel

[ Audio track nr. 2 ]

Codec ID: A_AAC
Sampling frequency: 48000 Hz
Channels: 2
Stream size: 131,646,846 bytes (125.548216 MiB)
Bitstream type (bs): AAC LC (Low Complexity)
Frames (bs): 277,842
Duration (bs): 01:38:47 (5927.296 s)
Chunk-aligned (bs): Yes
Bitrate (bs): 177.682162 kbps VBR
Sampling frequency (bs): 48000 Hz
Mode (bs): 2: front-left, front-right

[ Video bitstream ]

Bitstream type: MPEG-4 Part 10
User data: x264 | core 155 r2901 7d0ff22 | H.264/MPEG-4 AVC codec
User data: Copyleft 2003-2018 | http://www.videolan.org/x264.html | cabac=1
User data: ref=5 | deblock=1:-2:-2 | analyse=0x3:0x133 | me=umh | subme=10
User data: psy=1 | psy_rd=1.00:0.25 | mixed_ref=1 | me_range=24 | chroma_me=1
User data: trellis=2 | 8x8dct=1 | cqm=0 | deadzone=6,6 | fast_pskip=1
User data: chroma_qp_offset=-4 | threads=6 | lookahead_threads=1
User data: sliced_threads=0 | nr=0 | decimate=0 | interlaced=0
User data: bluray_compat=0 | constrained_intra=0 | bframes=8 | b_pyramid=2
User data: b_adapt=2 | b_bias=0 | direct=3 | weightb=1 | open_gop=0 | weightp=2
User data: keyint=250 | keyint_min=23 | scenecut=40 | intra_refresh=0
User data: rc_lookahead=60 | rc=2pass | mbtree=1 | bitrate=5676 | ratetol=1.0
User data: qcomp=0.80 | qpmin=0 | qpmax=69 | qpstep=4 | cplxblur=20.0
User data: qblur=0.5 | ip_ratio=1.10 | aq=1:0.50
SPS id: 0
 Profile: [email protected]
 Num ref frames: 5
 Chroma format: YUV 4:2:0
PPS id: 0 (SPS: 0)
 Entropy coding type: CABAC
 Weighted prediction: P slices - explicit weighted prediction
 Weighted bipred idc: B slices - implicit weighted prediction
 8x8dct: Yes
Total frames: 142,113
Drop/delay frames: 0
Corrupt frames: 0

P-slices:  24734 ( 17.404 %) ###
B-slices: 116513 ( 81.986 %) ################
I-slices:    866 (  0.609 %)
SP-slices:      0 (  0.000 %)
SI-slices:      0 (  0.000 %)

[ DRF analysis ]

average DRF: 22.679973
standard deviation: 1.950344
max DRF: 29

DRF29:     0 (  0.000 %)

P-slices average DRF: 22.254831
P-slices std. deviation: 1.989021
P-slices max DRF: 28

B-slices average DRF: 22.782608
B-slices std. deviation: 1.92116
B-slices max DRF: 29

I-slices average DRF: 21.013857
I-slices std. deviation: 2.30168
I-slices max DRF: 26

[ Profile compliancy ]

Selected profile: MTK PAL 6000
Resolution: 1920 x 808 > 720 x 576
Framerate: 23.976024  25
Buffer underflow: 00:01:31 (frame 2184)
Buffer underflow: 00:01:44 (frame 2490)
Buffer underflow: 00:01:44 (frame 2503)
Buffer underflow: 00:01:45 (frame 2516)
Buffer underflow: 00:01:46 (frame 2530)
Buffer underflow: 00:01:46 (frame 2541)
Buffer underflow: 00:01:46 (frame 2552)
Buffer underflow: 00:01:47 (frame 2563)
Buffer underflow: 00:01:47 (frame 2576)
Buffer underflow: 00:01:48 (frame 258
Buffer underflow: 00:01:48 (frame 2601)
Buffer underflow: 00:01:49 (frame 2613)
Buffer underflow: 00:01:50 (frame 2626)
Buffer underflow: 00:01:50 (frame 2639)
Buffer underflow: 00:01:51 (frame 2654)
Buffer underflow: 00:01:51 (frame 266
Buffer underflow: 00:01:52 (frame 2682)
Buffer underflow: 00:01:52 (frame 2697)
Buffer underflow: 00:01:53 (frame 2706)
Buffer underflow: 00:01:54 (frame 272
Error: Too many violations

[ Attached file ]

File name: Notes.txt
MIME type: text/plain
Size: 3,644 bytes
UID: 5767560294373381346

This report was created by AVInaptic (18-12-2011) on 9-02-2018 20:17:57
[/spoiler]
Notes:[spoiler]
Video Source:

Suspiria US 40th Anniversary Restoration

Synapse Films


PLAYLIST REPORT:

Name:                   00002.MPLS
Length:                 1:38:47.338 (h:m:s.ms)
Size:                   33.918.100.608 bytes
Total Bitrate:          45,78 Mbps

VIDEO:

Codec                   Bitrate             Description    
-----                   -------             -----------    
MPEG-4 AVC Video        34142 kbps          1080p / 23,976 fps / 16:9 / High Profile 4.1

AUDIO:

Codec                           Language        Bitrate         Description    
-----                           --------        -------         -----------    
DTS-HD Master Audio             English         4827 kbps       4.0 / 96 kHz / 4827 kbps / 24-bit (DTS Core: 4.0 / 48 kHz / 768 kbps / 24-bit)
DTS-HD Master Audio             Italian         4034 kbps       5.1 / 48 kHz / 4034 kbps / 24-bit (DTS Core: 5.1 / 48 kHz / 768 kbps / 24-bit)
Dolby Digital Audio             English         192 kbps        2.0 / 48 kHz / 192 kbps
Dolby Digital Audio             English         192 kbps        2.0 / 48 kHz / 192 kbps

SUBTITLES:

Codec                           Language        Bitrate         Description    
-----                           --------        -------         -----------    
Presentation Graphics           English         25,093 kbps                    
Presentation Graphics           English         21,116 kbps


Audio 1 Source:

Same as Video Source

DTS-HD Master Audio             Italian         4034 kbps       5.1 / 48 kHz / 4034 kbps / 24-bit (DTS Core: 5.1 / 48 kHz / 768 kbps / 24-bit)

Converted to 5.1 AAC with eac3to


Audio 2 Source:

Same as Video Source

DTS-HD Master Audio             English         4827 kbps       4.0 / 96 kHz / 4827 kbps / 24-bit (DTS Core: 4.0 / 48 kHz / 768 kbps / 24-bit)

Converted to 2.0 AAC with eac3to


Subtitle 1 Source:

Suspiria IT Nuova Versione Restaurata

PLAYLIST REPORT:

Name:                   00004.MPLS
Length:                 1:39:05.458 (h:m:s.ms)
Size:                   34.227.345.408 bytes
Total Bitrate:          46,06 Mbps

VIDEO:

Codec                   Bitrate             Description    
-----                   -------             -----------    
MPEG-4 AVC Video        33994 kbps          1080p / 24 fps / 16:9 / High Profile 4.1

AUDIO:

Codec                           Language        Bitrate         Description    
-----                           --------        -------         -----------    
LPCM Audio                      Italian         1536 kbps       2.0 / 48 kHz / 1536 kbps / 16-bit
DTS-HD Master Audio             Italian         2036 kbps       5.1 / 48 kHz / 2036 kbps / 16-bit (DTS Core: 5.1 / 48 kHz / 1509 kbps / 16-bit)
LPCM Audio                      English         1536 kbps       2.0 / 48 kHz / 1536 kbps / 16-bit
DTS-HD Master Audio             English         4000 kbps       5.1 / 48 kHz / 4000 kbps / 24-bit (DTS Core: 5.1 / 48 kHz / 1509 kbps / 24-bit)

SUBTITLES:

Codec                           Language        Bitrate         Description    
-----                           --------        -------         -----------    
Presentation Graphics           Italian         15,239 kbps                    
Presentation Graphics           English         16,376 kbps                    
Presentation Graphics           Italian         0,002 kbps


Subtitle 2 Source:

Same as Video Source

Presentation Graphics           English         25,093 kbps                    
[/spoiler]]]>
http://ilcorsaronero.cc/tor/139693/Suspiria__40th_Anniversary___4K_Remaster_Uncut___BDRip_1080p___Ita_Aac_5_1_Eng_Aac_2_0_Subs_ http://ilcorsaronero.cc/tor/139693/Suspiria__40th_Anniversary___4K_Remaster_Uncut___BDRip_1080p___Ita_Aac_5_1_Eng_Aac_2_0_Subs_ Mon, 10 Dec 2018 19:08:17 +0200
Il Gobbo di Notre Dame (1996).720p.H264.italian.english.Ac3-5.1.multisub-MIRCrew [BDRiP] [Seed (1)/Leech (8)] Visitate mircrew-releases

The Hunchback Of Notre Dame - Il Gobbo di Notre Dame (1996).720p.H264.italian.english.Ac3-5.1.multisub-MIRCrew


NO FOUND ONLY ORIGINAL RELEASE

My release is always in double track audio italian and Original audio
for select it use VLC or dvd player home
not use wmp

Il Gobbo di Notre Dame

The Hunchback Of Notre Dame


(1996)

Quality MIRCrew on HD 720p da  1,7 gb








Titolo originale The Hunchback of Notre Dame
Lingua originale inglese, latino
Paese di produzione Stati Uniti d'America
Anno 1996
Durata 91 min
Rapporto 1,66:1
Genere animazione, drammatico, sentimentale, musicale
Regia Gary Trousdale, Kirk Wise
Soggetto Tab Murphy (dal romanzo Notre-Dame de Paris di Victor Hugo)
Sceneggiatura Tab Murphy,



   Tom Hulce: Quasimodo
   Demi Moore: Esmeralda
   Tony Jay: Claude Frollo
   Kevin Kline: Febo
   Paul Kandel: Clopin Trouillefou
   Jason Alexander: Hugo
   Charles Kimbrough: Victor
   Mary Wickes: Laverne
   David Ogden Stiers: Arcidiacono



Nella Parigi del 1482 il burattinaio zingaro Clopin Trouillefou narra l'origine del gobbo del titolo. Un gruppo di zingari si era nascosto illegalmente a Parigi, ma erano caduti in un'imboscata del giudice Claude Frollo. Una zingara nel gruppo aveva tentato di fuggire con il suo bambino deforme, ma Frollo l'aveva inseguita e uccisa fuori dalla cattedrale di Notre-Dame; aveva provato ad uccidere anche il bambino, gettandolo in un pozzo, ma l'arcidiacono della cattedrale era intervenuto accusando Frollo di aver ucciso una donna innocente. Per espiare il suo peccato, Frollo aveva accettato con riluttanza di crescere il bambino deforme a Notre-Dame come fosse suo figlio, chiamandolo Quasimodo.



In 15th century Paris, Clopin the puppeteer tells the story of Quasimodo, the misshapen but gentle-souled bell ringer of Notre Dame, who was nearly killed as a baby by Claude Frollo, the Minister of Justice. But Frollo was forced by the Archdeacon of Notre Dame to raise Quasimodo as his own








General
Unique ID                                : 208529463490616138413077480606254233732 (0x9CE1505559F213F5947CE865B357F884)
Complete name                            : Il Gobbo di Notre Dame - The Hunchback Of Notre Dame (1996)Il Gobbo di Notre Dame - The Hunchback Of Notre Dame (1996).720p.h264.ita.eng-multisub-MIRCrew.mkv
Format                                   : Matroska
Format version                           : Version 2
File size                                : 1.73 GiB
Duration                                 : 1h 30mn
Overall bit rate                         : 2 720 Kbps
Movie name                               : MIRCrew
Encoded date                             : UTC 2018-09-18 09:27:58
Writing application                      : mkvmerge v5.4.0 ('Piper&#39 built on Mar 10 2012 13:34:39
Writing library                          : Lavf54.63.100

Video
ID                                       : 1
Format                                   : AVC
Format/Info                              : Advanced Video Codec
Format profile                           : [email protected]
Format settings, CABAC                   : Yes
Format settings, ReFrames                : 2 frames
Codec ID                                 : V_MPEG4/ISO/AVC
Duration                                 : 1h 30mn
Bit rate                                 : 1 900 Kbps
Width                                    : 1 280 pixels
Height                                   : 720 pixels
Display aspect ratio                     : 16:9
Frame rate mode                          : Variable
Frame rate                               : 23.976 fps
Color space                              : YUV
Chroma subsampling                       : 4:2:0
Bit depth                                : 8 bits
Scan type                                : Progressive
Bits/(Pixel*Frame)                       : 0.086
Stream size                              : 1.21 GiB (70%)
Writing library                          : x264 core 130 r2273
Encoding settings                        : cabac=1 / ref=2 / deblock=1:0:0 / analyse=0x1:0x131 / me=hex / subme=7 / psy=1 / psy_rd=1.00:0.00 / mixed_ref=0 / me_range=16 / chroma_me=1 / trellis=1 / 8x8dct=0 / cqm=0 / deadzone=21,11 / fast_pskip=1 / chroma_qp_offset=-2 / threads=3 / lookahead_threads=1 / sliced_threads=0 / nr=0 / decimate=1 / interlaced=0 / bluray_compat=0 / constrained_intra=0 / bframes=3 / b_pyramid=0 / b_adapt=1 / b_bias=0 / direct=3 / weightb=1 / open_gop=0 / weightp=2 / keyint=230 / keyint_min=23 / scenecut=40 / intra_refresh=0 / rc_lookahead=40 / rc=abr / mbtree=1 / bitrate=1900 / ratetol=1.0 / qcomp=0.60 / qpmin=10 / qpmax=69 / qpstep=4 / vbv_maxrate=24000 / vbv_bufsize=24000 / nal_hrd=none / ip_ratio=1.40 / aq=1:1.00
Language                                 : Italian
Default                                  : Yes
Forced                                   : No

Audio #1
ID                                       : 2
Format                                   : AC-3
Format/Info                              : Audio Coding 3
Mode extension                           : CM (complete main)
Codec ID                                 : A_AC3
Duration                                 : 1h 30mn
Bit rate mode                            : Constant
Bit rate                                 : 384 Kbps
Channel(s)                               : 6 channels
Channel positions                        : Front: L C R, Side: L R, LFE
Sampling rate                            : 48.0 KHz
Bit depth                                : 16 bits
Compression mode                         : Lossy
Delay relative to video                  : -5ms
Stream size                              : 250 MiB (14%)
Title                                    : Ita Ac3 5.1
Language                                 : Italian
Default                                  : No
Forced                                   : No

Audio #2
ID                                       : 3
Format                                   : AC-3
Format/Info                              : Audio Coding 3
Mode extension                           : CM (complete main)
Codec ID                                 : A_AC3
Duration                                 : 1h 30mn
Bit rate mode                            : Constant
Bit rate                                 : 384 Kbps
Channel(s)                               : 6 channels
Channel positions                        : Front: L C R, Side: L R, LFE
Sampling rate                            : 48.0 KHz
Bit depth                                : 16 bits
Compression mode                         : Lossy
Delay relative to video                  : -5ms
Stream size                              : 250 MiB (14%)
Title                                    : Eng Ac3 5.1
Language                                 : English
Default                                  : No
Forced                                   : No

Menu
00:00:00.000                             : :"The Bells of Notre Dame"/Main Title
00:06:27.554                             : :Will Today Be the Day?
00:10:30.672                             : :Frollo Arrives
00:12:04.390                             : :Frollo's Warning About the World "Out There"
00:13:45.658                             : :Quasimodo Longs to Be "Out There"
00:16:38.289                             : hoebus' Return to Paris
00:20:48.497                             : :The Festival of Fools ("Topsy Turvy&#34
00:26:07.316                             : :The Crowd Turns on Their King
00:27:26.436                             : :Esmeralda Comes to Quasimodo's Aid
00:31:27.928                             : :Esmeralda Seeks Revenge in the Cathedral
00:34:00.205                             : :Frollo's Threat
00:35:35.675                             : :"God Help the Outcasts"
00:38:34.270                             : :Esmeralda Follows Quasimodo Into His World
00:42:17.160                             : :Quasimodo Helps Esmeralda Escape
00:44:41.512                             : hoebus Comes Looking for Esmeralda
00:45:33.648                             : :Quasimodo Dreams of "Heaven's Light"
00:47:52.161                             : :"Hellfire"
00:52:47.164                             : hoebus Defies Frollo
00:56:11.410                             : :One of a Kind ("A Guy Like You&#34
00:59:11.047                             : :The Fugitive ("Heaven's Light" - Reprise)
01:01:39.988                             : :Another Visit From Frollo
01:07:44.143                             : :"The Court of Miracles"
01:11:24.363                             : :A Public Execution
01:13:00.084                             : :Quasimodo Rescues Esmeralda
01:14:31.676                             : :Frollo Attacks Notre Dame
01:17:51.750                             : :A Short-Lived Moment of Triumph
01:18:52.603                             : :Unfinished Business
01:20:06.510                             : :The Final Confrontation
01:21:50.531                             : :Sweet Reunion
01:25:00.554                             : :End Credits ("Someday&#34
]]>
http://ilcorsaronero.cc/tor/139691/Il_Gobbo_di_Notre_Dame__1996__720p_H264_italian_english_Ac3_5_1_multisub_MIRCrew http://ilcorsaronero.cc/tor/139691/Il_Gobbo_di_Notre_Dame__1996__720p_H264_italian_english_Ac3_5_1_multisub_MIRCrew Mon, 10 Dec 2018 18:44:15 +0200
Richard Strauss - Arabella (2008) [DVD9 NTSC] [DVD] [Seed (0)/Leech (0)] [DVD9 NTSC]


Actors: Georg Solti, Wiener Philharmoniker
Format: Classica, Schermo pieno, NTSC, Import
Audio: Tedesco
Language: Tedesco
Subtitles: Cinese, Inglese, Francese, Tedesco, Spagnolo
Format immage: 1.33:1
Numebro di disc: 2
Studio: Decca Unitel
Date DVD: 14 mar. 2008
Lenght: 150 minuts

.: Tracklist :.


Richard Strauss, like Igor Stravinsky with The Rite of Spring, seemed frightened by what he had composed with the dissonant modern operas Elektra and Salome, retreating, as did Stravinsky, into a more conventional music of the past. It remained for Arnold Schoenberg to take the plunge and remove the trappings of tonality. Strauss, with his librettist Hugo von Hofmannsthal, composed a series of lyrical dramas that are quite conventional but often feature music of great beauty. Their last collaboration was Arabella, begun in 1927 but not completed until October 1932 and first performed in Dresden 1 July 1933. Composition was slowed when Hofmannsthal died in early July 1929, having completed his revision of the first act. Strauss was forced to tackle the libretto on his own, a difficult task since he was not happy with the plot, considering it uninteresting and lacking any true conflict. He made some changes and, although uninspired by the libretto, finally finished the opera. His criticism of the libretto is valid: the plot has precious little forward thrust, the character of Arabella is somewhat tame, the others more or less bland, as well. Nevertheless, the opera contains much music of sumptuous beauty as only Strauss could write, creating in Arabella a symphonic portrait of an ideal woman, a three hour long stage tone poem. Strauss' writing for string quintet and woodwinds is especially masterful. Passages containing music for bass clarinet and horns that are passed to pizzicato strings reveal Strauss the orchestral wizard, his mastery of instrumental dynamics is stunning.

Gundula Janowiz is a fine Arabella in this beautifully filmed version of the opera, directed in 1977 by Otto Schenk. Costumes and sets are gorgeous, wonderfully evoking the slightly decadent Vienna of the 1860s. Bernd Weikl is a strong Mandryka, Arabella's husband to be. Matteo is Rene Kollo, a singer whose slightly reedy voice has never been a favorite of mine but who seemed to be ubiquitous in the 1970s. He is less of a vocal nuisance here, perhaps because he wanders through the opera constantly threatening suicide. Sona Ghazarian is an adorable Zdenka. Edita Gruberova is the Fiakermilli in an early appearance. Georg Solti directs the Vienna Philharmoniker, who are absolutely nonpareil in this music. Their sound is lucious, rich and beautifully burnished with a magnificent grasp of Strauss' often difficult writing for the winds and brasses. It is hard to imagine this music played any better than this.

The two DVDs last 189 minutes with a crisp remastered picture and clear sound in both PCM stereo and DTS 5.1. The discs are worldwide code 0. The usual Decca menus are here as well as an informative booklet.

Late Strauss that is stunningly filmed, nicely sung, well acted and masterfully performed by Georg Solti and the Vienna Philharmoniker, make Arabella strongly recommended.


.: Other Files :.

log+cue+m3u+cover


]]>
http://ilcorsaronero.cc/tor/139690/Richard_Strauss___Arabella__2008___DVD9_NTSC_ http://ilcorsaronero.cc/tor/139690/Richard_Strauss___Arabella__2008___DVD9_NTSC_ Mon, 10 Dec 2018 17:46:01 +0200
Il Grinch (2000).720p.H264.italian.english.Ac3-5.1.sub.ita-MIRCrew [BDRiP] [Seed (26)/Leech (39)] Visitate mircrew-releases

How the Grinch Stole Christmas  - Il Grinch (2000).720p.H264.italian.english.Ac3.sub.ita-MIRCrew



NO FOUND ONLY ORIGINAL RELEASE

My release is always in double track audio italian and Original audio
for select it use VLC or dvd player home
not use wmp

Il Grinch

How the Grinch Stole Christmas


(2000)

Quality MIRCrew on HD 720p da  1,9 gb








Titolo originale How the Grinch Stole Christmas
Paese di produzione Stati Uniti d'America, Germania
Anno 2000
Durata 105 min
Genere commedia, fantastico
Regia Ron Howard
Soggetto Dr. Seuss
Sceneggiatura Jeffrey Price, Peter S. Seaman
Fotografia Donald Peterman
Montaggio Daniel P. Hanley, Mike Hill
Musiche James Horner
Scenografia Merideth Boswell, Michael Corenblith



   Jim Carrey: Il Grinch
   Taylor Momsen: Cindy Chi Lou
   Josh Ryan Evans: Il Grinch da piccolo
   Bill Irwin: Lou Chi Lou
   Christine Baranski: Martha May Whovier
   Jeffrey Tambor: Augustus Sindachì
   Molly Shannon: Betty Chi Lou
   Clint Howard: Chibris
   Mindy Sterling: Clarnella
   Rachel Winfree: Rise
   Jeremy Howard: Drew Chi Lou
   T.J. Thyne: Stu Chi Lou
   Lacey Kohl: Christina Chiterberry
   Ron Howard: Cittadino di Chinonso (non accreditato)



La storia inizia quando all'interno di un fiocco di neve viene scoperto fra alcune montagne chiamati Picchi di Punta Boh il paese di Chinonsò, che è abitato da esseri di differente altezza, sesso ed età, i Nonsochì. A Chinonsò ci si prepara da sempre al Natale, sentito come la festività pìù importante.



On the outskirts of Whoville, there lives a green, revenge-seeking Grinch who plans on ruining the Christmas holiday for all of the citizens of the town









General
Unique ID                                : 336118051372277585985268503097465747750 (0xFCDDFB64443A990C2AA13374E1EDB926)
Complete name                            : Il Grinch - How the Grinch Stole Christmas (2000).720p.h264.ita.eng.sub.ita-MIRCrewIl Grinch - How the Grinch Stole Christmas (2000).720p.h264.ita.eng.sub.ita-MIRCrew.mkv
Format                                   : Matroska
Format version                           : Version 2
File size                                : 1.94 GiB
Duration                                 : 1h 44mn
Overall bit rate                         : 2 646 Kbps
Movie name                               : MIRCrew
Encoded date                             : UTC 2018-12-08 09:35:16
Writing application                      : Lavf54.63.100
Writing library                          : Lavf54.63.100
COMMENT                                  : mircrew-releases

Video
ID                                       : 1
Format                                   : AVC
Format/Info                              : Advanced Video Codec
Format profile                           : [email protected]
Format settings, CABAC                   : Yes
Format settings, ReFrames                : 2 frames
Codec ID                                 : V_MPEG4/ISO/AVC
Duration                                 : 1h 44mn
Bit rate                                 : 1 900 Kbps
Width                                    : 1 264 pixels
Height                                   : 688 pixels
Display aspect ratio                     : 16:9
Frame rate mode                          : Variable
Frame rate                               : 23.976 fps
Color space                              : YUV
Chroma subsampling                       : 4:2:0
Bit depth                                : 8 bits
Scan type                                : Progressive
Bits/(Pixel*Frame)                       : 0.091
Stream size                              : 1.34 GiB (69%)
Writing library                          : x264 core 130 r2273
Encoding settings                        : cabac=1 / ref=2 / deblock=1:0:0 / analyse=0x1:0x131 / me=hex / subme=7 / psy=1 / psy_rd=1.00:0.00 / mixed_ref=0 / me_range=16 / chroma_me=1 / trellis=1 / 8x8dct=0 / cqm=0 / deadzone=21,11 / fast_pskip=1 / chroma_qp_offset=-2 / threads=6 / lookahead_threads=1 / sliced_threads=0 / nr=0 / decimate=1 / interlaced=0 / bluray_compat=0 / constrained_intra=0 / bframes=3 / b_pyramid=0 / b_adapt=1 / b_bias=0 / direct=3 / weightb=1 / open_gop=0 / weightp=2 / keyint=230 / keyint_min=23 / scenecut=40 / intra_refresh=0 / rc_lookahead=40 / rc=abr / mbtree=1 / bitrate=1900 / ratetol=1.0 / qcomp=0.60 / qpmin=10 / qpmax=69 / qpstep=4 / vbv_maxrate=24000 / vbv_bufsize=24000 / nal_hrd=none / ip_ratio=1.40 / aq=1:1.00
Language                                 : Italian
Default                                  : Yes
Forced                                   : No
DURATION                                 : 01:44:56.290000000
NUMBER_OF_FRAMES                         : 150960
NUMBER_OF_BYTES                          : 9520604712
_STATISTICS_WRITING_APP                  : mkvmerge v18.0.0 ('Apricity&#39 64-bit
_STATISTICS_WRITING_DATE_UTC             : 2017-11-29 07:44:23
_STATISTICS_TAGS                         : BPS DURATION NUMBER_OF_FRAMES NUMBER_OF_BYTES

Audio #1
ID                                       : 2
Format                                   : AC-3
Format/Info                              : Audio Coding 3
Mode extension                           : CM (complete main)
Codec ID                                 : A_AC3
Duration                                 : 1h 44mn
Bit rate mode                            : Constant
Bit rate                                 : 384 Kbps
Channel(s)                               : 6 channels
Channel positions                        : Front: L C R, Side: L R, LFE
Sampling rate                            : 48.0 KHz
Bit depth                                : 16 bits
Compression mode                         : Lossy
Delay relative to video                  : 1mn 5s
Stream size                              : 288 MiB (15%)
Title                                    : Eng Ac3 5.1
Language                                 : English
Default                                  : No
Forced                                   : No
DURATION                                 : 01:44:56.320000000
NUMBER_OF_FRAMES                         : 196760
NUMBER_OF_BYTES                          : 352593920
_STATISTICS_WRITING_APP                  : mkvmerge v18.0.0 ('Apricity&#39 64-bit
_STATISTICS_WRITING_DATE_UTC             : 2017-11-29 07:44:23
_STATISTICS_TAGS                         : BPS DURATION NUMBER_OF_FRAMES NUMBER_OF_BYTES

Audio #2
ID                                       : 3
Format                                   : AC-3
Format/Info                              : Audio Coding 3
Mode extension                           : CM (complete main)
Codec ID                                 : A_AC3
Duration                                 : 1h 44mn
Bit rate mode                            : Constant
Bit rate                                 : 384 Kbps
Channel(s)                               : 6 channels
Channel positions                        : Front: L C R, Side: L R, LFE
Sampling rate                            : 48.0 KHz
Bit depth                                : 16 bits
Compression mode                         : Lossy
Delay relative to video                  : 1mn 5s
Stream size                              : 288 MiB (15%)
Title                                    : Ita Ac3 5.1
Language                                 : Italian
Default                                  : Yes
Forced                                   : No
DURATION                                 : 01:44:56.352000000
NUMBER_OF_FRAMES                         : 196761
NUMBER_OF_BYTES                          : 352595712
_STATISTICS_WRITING_APP                  : mkvmerge v18.0.0 ('Apricity&#39 64-bit
_STATISTICS_WRITING_DATE_UTC             : 2017-11-29 07:44:23
_STATISTICS_TAGS                         : BPS DURATION NUMBER_OF_FRAMES NUMBER_OF_BYTES

Menu
00:00:00.000                             : :Chapter 1
00:03:38.038                             : :Chapter 2
00:10:26.079                             : :Chapter 3
00:17:50.081                             : :Chapter 4
00:19:21.095                             : :Chapter 5
00:23:36.049                             : :Chapter 6
00:33:29.008                             : :Chapter 7
00:36:54.079                             : :Chapter 8
00:44:05.043                             : :Chapter 9
00:47:12.078                             : :Chapter 10
00:52:58.021                             : :Chapter 11
00:59:39.011                             : :Chapter 12
01:02:39.067                             : :Chapter 13
01:07:04.035                             : :Chapter 14
01:14:36.063                             : :Chapter 15
01:18:12.035                             : :Chapter 16
01:22:01.004                             : :Chapter 17
01:27:18.006                             : :Chapter 18
01:30:21.062                             : :Chapter 19
01:37:52.044                             : :Chapter 20
01:44:56.003                             : :Chapter 21





]]>
http://ilcorsaronero.cc/tor/139689/Il_Grinch__2000__720p_H264_italian_english_Ac3_5_1_sub_ita_MIRCrew http://ilcorsaronero.cc/tor/139689/Il_Grinch__2000__720p_H264_italian_english_Ac3_5_1_sub_ita_MIRCrew Mon, 10 Dec 2018 16:42:14 +0200
Operation Finale (2018).720p.H264.italian.english.Ac3-5.1.sub.ita.eng-MIRCrew [BDRiP] [Seed (85)/Leech (163)] Visitate mircrew-releases


Operation Finale 2018.720p.H264.italian.english.Ac3-5.1.sub.ita.eng-MIRCrew


NO FOUND ONLY ORIGINAL RELEASE



My release is always in double track audio italian and Original audio
for select it use VLC or dvd player home
not use wmp

Operation Finale

2018

Quality MIRCrew on HD 720p da  2,3 gb








Lingua originale inglese, spagnolo
Paese di produzione Stati Uniti d'America
Anno 2018
Genere drammatico, storico, biografico
Regia Chris Weitz
Sceneggiatura Matthew Orton



   Oscar Isaac: Peter Malkin
   Ben Kingsley: Adolf Eichmann
   Mélanie Laurent: Hanna
   Nick Kroll: Rafi Eitan
   Joe Alwyn: Klaus Eichmann
   Lior Raz: Isser Harel
   Haley Lu Richardson: Sylvia Herman
   Michael Aronov: Zvi Aharoni
   Peter Strauss: Lothar Hermann
   Ohad Knoller: Ephraim Ilani
   Torben Liebrecht: Yaakov Gat
   Pêpê Rapazote: Carlos Füldner
   Greta Scacchi: Vera Eichmann



Negli anni sessanta, l'agente segreto del Mossad Peter Malkin rintracciò e catturò Adolf Eichmann, SS-Obersturmbannführer del Reich durante la seconda guerra mondiale e criminale di guerra, che sfuggì al processo di Norimberga e fece perdere le sue tracce in Argentina. Dopo la sua cattura venne processato e condannato a morte in Israele per genocidio e crimini contro l'umanità.



Director Chris Weitz's historical thriller is based on the story of how a group of Israeli secret agents arrested notorious SS officer Adolf Eichmann - the man who masterminded the "Final Solution" - in Argentina. Oscar Isaac plays the legendary Mossad agent Peter Malkin, while Ben Kingsley plays his emotionally manipulative arch-nemesis







General
Unique ID                                : 138467363781613634515500831608951939011 (0x682BD81EFB3615B4640D52FE034A1FC3)
Complete name                            : Operation Finale 2018.720p.h264.ita.eng.sub.ita.eng-MIRCrewOperation Finale 2018.720p.h264.ita.eng.sub.ita.eng-MIRCrew.mkv
Format                                   : Matroska
Format version                           : Version 2
File size                                : 2.30 GiB
Duration                                 : 2h 2mn
Overall bit rate                         : 2 681 Kbps
Movie name                               : MIRCrew
Encoded date                             : UTC 2018-12-07 17:40:32
Writing application                      : Lavf54.63.100
Writing library                          : Lavf54.63.100
COMMENT                                  : mircrew-releases

Video
ID                                       : 1
Format                                   : AVC
Format/Info                              : Advanced Video Codec
Format profile                           : [email protected]
Format settings, CABAC                   : Yes
Format settings, ReFrames                : 2 frames
Codec ID                                 : V_MPEG4/ISO/AVC
Duration                                 : 2h 2mn
Bit rate                                 : 1 900 Kbps
Width                                    : 1 280 pixels
Height                                   : 688 pixels
Display aspect ratio                     : 1.850
Frame rate mode                          : Variable
Frame rate                               : 23.976 fps
Color space                              : YUV
Chroma subsampling                       : 4:2:0
Bit depth                                : 8 bits
Scan type                                : Progressive
Bits/(Pixel*Frame)                       : 0.090
Stream size                              : 1.59 GiB (69%)
Writing library                          : x264 core 130 r2273
Encoding settings                        : cabac=1 / ref=2 / deblock=1:0:0 / analyse=0x1:0x131 / me=hex / subme=7 / psy=1 / psy_rd=1.00:0.00 / mixed_ref=0 / me_range=16 / chroma_me=1 / trellis=1 / 8x8dct=0 / cqm=0 / deadzone=21,11 / fast_pskip=1 / chroma_qp_offset=-2 / threads=6 / lookahead_threads=1 / sliced_threads=0 / nr=0 / decimate=1 / interlaced=0 / bluray_compat=0 / constrained_intra=0 / bframes=3 / b_pyramid=0 / b_adapt=1 / b_bias=0 / direct=3 / weightb=1 / open_gop=0 / weightp=2 / keyint=230 / keyint_min=23 / scenecut=40 / intra_refresh=0 / rc_lookahead=40 / rc=abr / mbtree=1 / bitrate=1900 / ratetol=1.0 / qcomp=0.60 / qpmin=10 / qpmax=69 / qpstep=4 / vbv_maxrate=24000 / vbv_bufsize=24000 / nal_hrd=none / ip_ratio=1.40 / aq=1:1.00
Language                                 : Italian
Default                                  : Yes
Forced                                   : No
DURATION                                 : 02:02:38.810000000
NUMBER_OF_FRAMES                         : 176435
NUMBER_OF_BYTES                          : 9711023354
_STATISTICS_WRITING_APP                  : mkvmerge v7.1.0 ('Good Love&#39 32bit built on Jul 27 2014 12:59:18
_STATISTICS_WRITING_DATE_UTC             : 2018-12-01 17:56:41
_STATISTICS_TAGS                         : BPS DURATION NUMBER_OF_FRAMES NUMBER_OF_BYTES

Audio #1
ID                                       : 2
Format                                   : AC-3
Format/Info                              : Audio Coding 3
Mode extension                           : CM (complete main)
Codec ID                                 : A_AC3
Duration                                 : 2h 2mn
Bit rate mode                            : Constant
Bit rate                                 : 384 Kbps
Channel(s)                               : 6 channels
Channel positions                        : Front: L C R, Side: L R, LFE
Sampling rate                            : 48.0 KHz
Bit depth                                : 16 bits
Compression mode                         : Lossy
Delay relative to video                  : 1mn 5s
Stream size                              : 337 MiB (14%)
Title                                    : AC3
Language                                 : Italian
Default                                  : No
Forced                                   : Yes
_STATISTICS_WRITING_APP                  : mkvmerge v7.1.0 ('Good Love&#39 32bit built on Jul 27 2014 12:59:18
_STATISTICS_WRITING_DATE_UTC             : 2018-12-01 17:56:41
_STATISTICS_TAGS                         : BPS DURATION NUMBER_OF_FRAMES NUMBER_OF_BYTES
DURATION                                 : 02:02:38.880000000
NUMBER_OF_FRAMES                         : 229965
NUMBER_OF_BYTES                          : 353226240

Audio #2
ID                                       : 3
Format                                   : AC-3
Format/Info                              : Audio Coding 3
Mode extension                           : CM (complete main)
Codec ID                                 : A_AC3
Duration                                 : 2h 2mn
Bit rate mode                            : Constant
Bit rate                                 : 384 Kbps
Channel(s)                               : 6 channels
Channel positions                        : Front: L C R, Side: L R, LFE
Sampling rate                            : 48.0 KHz
Bit depth                                : 16 bits
Compression mode                         : Lossy
Delay relative to video                  : 1mn 5s
Stream size                              : 337 MiB (14%)
Title                                    : AC3
Language                                 : English
Default                                  : No
Forced                                   : No
_STATISTICS_WRITING_APP                  : mkvmerge v7.1.0 ('Good Love&#39 32bit built on Jul 27 2014 12:59:18
_STATISTICS_WRITING_DATE_UTC             : 2018-12-01 17:56:41
_STATISTICS_TAGS                         : BPS DURATION NUMBER_OF_FRAMES NUMBER_OF_BYTES
DURATION                                 : 02:02:38.880000000
NUMBER_OF_FRAMES                         : 229965
NUMBER_OF_BYTES                          : 588710400

Menu
00:00:00.000                             : :00:00:00.000
00:07:11.056                             : :00:07:11.056
00:13:22.176                             : :00:13:22.176
00:17:19.538                             : :00:17:19.538
00:24:44.149                             : :00:24:44.149
00:31:32.599                             : :00:31:32.599
00:35:49.647                             : :00:35:49.647
00:40:26.799                             : :00:40:26.799
00:47:11.579                             : :00:47:11.579
00:54:53.916                             : :00:54:53.916
01:00:20.700                             : :01:00:20.700
01:08:55.840                             : :01:08:55.840
01:14:11.238                             : :01:14:11.238
01:22:05.796                             : :01:22:05.796
01:27:13.562                             : :01:27:13.562
01:34:38.131                             : :01:34:38.131
01:41:02.265                             : :01:41:02.265
01:45:13.349                             : :01:45:13.349
01:51:04.157                             : :01:51:04.157
01:58:06.621                             : :01:58:06.621

]]>
http://ilcorsaronero.cc/tor/139688/Operation_Finale__2018__720p_H264_italian_english_Ac3_5_1_sub_ita_eng_MIRCrew http://ilcorsaronero.cc/tor/139688/Operation_Finale__2018__720p_H264_italian_english_Ac3_5_1_sub_ita_eng_MIRCrew Mon, 10 Dec 2018 15:40:15 +0200
Woman in Gold (2015 ITA/ENG) [1080p x264] [lele753] [BDRiP] [Seed (1)/Leech (0)]






Lingua originale inglese
Paese di produzione Regno Unito
Anno 2015
Durata 110 min
Genere drammatico, storico
Regia Simon Curtis

CAST

Helen Mirren: Maria Altmann
Ryan Reynolds: Randol Schoenberg
Daniel Brühl: Hubertus Czernin
Katie Holmes: Pam Schoenberg
Tatiana Maslany: Maria Altmann giovane
Max Irons: Fredrick "Fritz" Altmann
Charles Dance: Sherman
Elizabeth McGovern: Florence-Marie Cooper
Jonathan Pryce: William Rehnquist
Moritz Bleibtreu: Gustav Klimt
Justus von Dohnányi: Dreimann
Antje Traue: Adele Bloch-Bauer
Frances Fisher: Mrs. Schoenberg
Tom Schilling: Heinrich
Ben Miles: Ronald Lauder
Rolf Saxon: Stan Gould
Ludger Pistor: Wran
Anthony Howell: Junior Official



Maria Altmann, una sopravvissuta all'Olocausto, insieme al giovane avvocato E. Randol Schönberg, combatte contro il governo austriaco per quasi un decennio per recuperare l'iconico quadro di Gustav Klimt Ritratto di Adele Bloch-Bauer I, appartenuto a sua zia e che era stato confiscato dai nazisti a Vienna poco prima della seconda guerra mondiale

INESATTEZZE

Nel film è mostrato essere l'avvocato di Maria Altmann, Randol Schönberg, a indagare e ad avviare il procedimento di restituzione dei dipinti. In realtà, come rivelato dalla giornalista Olga Kronsteiner del quotidiano austriaco Der Standard, fu il giornalista austriaco Hubertus Czernin a trovare dei documenti decisivi e a contattare Maria Altmann.[2]
Nel film Hubertus Czernin afferma di essersi mosso perché suo padre era stato un membro del Partito nazista. In realtà Czernin scoprì che il padre era un nazista solamente nel 2006, molto tempo dopo che aveva iniziato a lavorare su questo e altri casi di restituzione.
Nel film Maria Altmann lascia il padre malato a Vienna nel 1938. In realtà, nonostante l'imminente pericolo, Maria Altmann rimase a Vienna fino alla morte del padre avvenuta per cause naturali nel luglio 1938.[3]
Nel film viene mostrato un quadro indicato come il ritratto del duca Andrassy che sarebbe stato sottratto ad una famiglia ebrea conservato da Hitler nel suo studio presso il Berghof. In realtà il quadro mostrato è un dipinto di Napoleone II eseguito da Carl von Sales e conservato da sempre al Castello di Schönbrunn









[ Info sul file ]

Nome: woman.in.gold.2015.bdrip.1080.x264.dts.ita.ac3.eng.subs.lele753.mkv
Data: Thu, 06 Dec 2018 01:33:14 +0100
Dimensione: 5,455,257,936 bytes (5202.539383 MiB)
Nota: L'analisi non è completa

[ Magic ]

Tipo file: data

[ Info generiche ]

Durata: 01:49:22 (6561.504 s)
Contenitore: matroska
Production date: Fri, 26 Feb 2016 18:33:15 +0100
Totale tracce: 5
Traccia n. 1: video (V_MPEG4/ISO/AVC) [Woman in Gold (encoded by lele753)] {ita}
Traccia n. 2: audio (A_DTS) [DTS 5.1 1536Kbps] {ita}
Traccia n. 3: audio (A_AC3) [AC3 5.1 640Kbps] {eng}
Traccia n. 4: subtitle (S_TEXT/UTF [Italiano forced] {ita}
Traccia n. 5: subtitle (S_TEXT/UTF [Italiano] {ita}
Muxing library: libebml v1.3.3 + libmatroska v1.4.4
Writing application: mkvmerge v8.9.0 ('Father Daughter&#39 64bit

[ Dati rilevanti ]

Risoluzione: 1920 x 804
Larghezza: multipla di 32
Altezza: multipla di 4

[ Traccia video ]

Codec ID: V_MPEG4/ISO/AVC
Risoluzione: 1920 x 804
Frame aspect ratio: 160:67 = 2.38806
Pixel aspect ratio: 1:1 = 1
Display aspect ratio: 160:67 = 2.38806
Framerate: 24 fps

[ Traccia audio nr. 1 ]

Codec ID: A_DTS
Freq. campionamento: 48000 Hz
Canali: 6
Tipo di bitstream (bs): DTS
Bitrate (bs): 1536 kbps CBR
Freq. campionamento (bs): 48000 Hz
Modo (bs): C + L + R+ SL+SR

[ Traccia audio nr. 2 ]

Codec ID: A_AC3
Freq. campionamento: 48000 Hz
Canali: 6
Tipo di bitstream (bs): AC3
Bitrate (bs): 640 kbps CBR
Freq. campionamento (bs): 48000 Hz
Modo (bs): 3 front, 2 rear, 1 LFE

[ Bitstream video ]

Tipo di bitstream: MPEG-4 Part 10
User data: x264 | core 148 r2665 a01e339 | H.264/MPEG-4 AVC codec
User data: Copyleft 2003-2016 | http://www.videolan.org/x264.html | cabac=1
User data: ref=4 | deblock=1:-3:-3 | analyse=0x3:0x133 | me=tesa | subme=10
User data: psy=1 | psy_rd=1.00:0.00 | mixed_ref=1 | me_range=32 | chroma_me=1
User data: trellis=2 | 8x8dct=1 | cqm=0 | deadzone=21,11 | fast_pskip=0
User data: chroma_qp_offset=-2 | threads=18 | lookahead_threads=3
User data: sliced_threads=0 | nr=0 | decimate=0 | interlaced=0
User data: bluray_compat=0 | constrained_intra=0 | bframes=8 | b_pyramid=2
User data: b_adapt=2 | b_bias=0 | direct=3 | weightb=1 | open_gop=0 | weightp=2
User data: keyint=230 | keyint_min=23 | scenecut=40 | intra_refresh=0
User data: rc_lookahead=60 | rc=crf | mbtree=0 | crf=18.8 | qcomp=0.60
User data: qpmin=0 | qpmax=69 | qpstep=4 | vbv_maxrate=50000
User data: vbv_bufsize=50000 | crf_max=0.0 | nal_hrd=none | filler=0
User data: ip_ratio=1.40 | pb_ratio=1.30 | aq=3:0.85 | zones=146100,157473,q=27
SPS id: 0
 Profile: [email protected]
 Num ref frames: 4
 Aspect ratio: Square pixels
 Chroma format: YUV 4:2:0
PPS id: 0 (SPS: 0)
 Tipo di codifica entropica: CABAC
 Weighted prediction: P slices - explicit weighted prediction
 Weighted bipred idc: B slices - implicit weighted prediction
 8x8dct: Sì

[ Conformità al profilo ]

Profilo selezionato: MTK PAL 6000
Risoluzione: 1920 x 804 > 720 x 576
Framerate: 24  25

[ Edition entry ]

UID: 521828620720451202
Nascosto: No
Selezionato di default: No
Playlist: No
Capitoli:
00:00:00,000-00:09:42,625: Capitolo 01 {ita}
00:09:42,625-00:18:12,833: Capitolo 02 {ita}
00:18:12,833-00:27:16,000: Capitolo 03 {ita}
00:27:16,000-00:36:22,417: Capitolo 04 {ita}
00:36:22,417-00:45:19,208: Capitolo 05 {ita}
00:45:19,208-00:54:49,208: Capitolo 06 {ita}
00:54:49,208-01:04:15,833: Capitolo 07 {ita}
01:04:15,833-01:12:57,000: Capitolo 08 {ita}
01:12:57,000-01:21:50,625: Capitolo 09 {ita}
01:21:50,625-01:30:13,417: Capitolo 10 {ita}
01:30:13,417-01:38:29,417: Capitolo 11 {ita}
01:38:29,417-01:49:21,417: Capitolo 12 {ita}
01:49:21,417-01:49:21,504: Capitolo 13 {ita}

Rapporto creato da AVInaptic (18-12-2011) in data 9-12-2018 16:41:21












[/center]]]>
http://ilcorsaronero.cc/tor/139687/Woman_in_Gold__2015_ITA_ENG___1080p_x264___lele753_ http://ilcorsaronero.cc/tor/139687/Woman_in_Gold__2015_ITA_ENG___1080p_x264___lele753_ Mon, 10 Dec 2018 15:32:23 +0200
Kidding.1x01-10.WEB-DLMux.XviD.Ita.Eng.Ac3.Earine [Serie TV] [Seed (1)/Leech (1)]



[size=12pt]KIDDING - IL FANTASTICO MONDO DI Mr. PICKLES S01e01-10 [WEB-DLMux.XviD.Ita.Eng.Ac3.Earine][/size]




[youtube]http://www.youtube.com/watch?v=OzwU7dbmAyY[/youtube]



[size=14pt]
Titolo originale: Kidding
Paese: Stati Uniti d'America
Anno: 2018 – in produzione
Formato: serie TV
Genere: commedia, drammatico
Stagioni: 1
Episodi: 10
Durata: 28-32 min (episodio)

Interpreti e personaggi
Jeff Piccirillo / Mr. Pickles, interpretato da Jim Carrey
Deirdre "Didi", interpretata da Catherine Keener
Sebastian Piccirillo, interpretato da Frank Langella
Jill Piccirillo, interpretata da Judy Greer
William "Will" and Philip "Phil" Piccirillo, interpretati da Cole Allen
Maddy, interpretata da Juliet Morris

[/size]




[size=14pt]Ambientata a Columbus, in Ohio, la serie segue Jeff Piccirillo, noto presentatore televisivo per bambini conosciuto come Mr. Pickles, che viene apprezzato da bambini e genitori allo stesso modo. Mr. Pickles sostiene un impero multimilionario di branding, ma affronta una tragedia personale e una vita familiare difficile.[/size]








[spoiler]Generale
Nome completo                           : C:UsersuserDownloadsKidding.1x01.WEB-DLMux.XviD.Ita.Eng.Ac3.EarineKidding.1x01.WEB-DLMux.XviD.Ita.Eng.Ac3.Earine.avi
Formato                                 : AVI
Formato/Informazioni                    : Audio Video Interleave
Dimensione                              : 473MiB
Durata                                  : 31 min 38s
Bitrate totale                          : 2.089 kb/s
Film                                    : 1x01  -  By Earine
Creato con                              : VirtualDubMod 1.5.10.2 (build 2540/release)
Compressore                             : VirtualDubMod build 2540/release

Video
ID                                      : 0
Formato                                 : MPEG-4 Visual
Profilo formato                         : [email protected]
Impostazioni formato, BVOP              : No
Impostazioni formato, QPel              : No
Impostazioni formato, GMC               : No warppoints
Impostazioni formato, Matrix            : Default (H.263)
ID codec                                : XVID
ID codec/Suggerimento                   : XviD
Durata                                  : 31 min 38s
Bitrate                                 : 1.499 kb/s
Larghezza                               : 720 pixel
Altezza                                 : 404 pixel
Rapporto aspetto visualizzazione        : 16:9
Frame rate                              : 25,000 FPS
Spazio colore                           : YUV
Croma subsampling                       : 4:2:0
Profondità bit                          : 8 bit
Tipo scansione                          : Progressivo
Modo compressione                       : Con perdita
Bit/(pixel*frame)                       : 0.206
Dimensione della traccia                : 339MiB (72%)
Compressore                             : XviD 64

Audio #1
ID                                      : 1
Formato                                 : AC-3
Formato/Informazioni                    : Audio Coding 3
Impostazioni formato, Endianness        : Big
ID codec                                : 2000
Durata                                  : 31 min 38s
Modalità bitrate                        : Costante
Bitrate                                 : 192 kb/s
Canali                                  : 2 canali
Posizione canali                        : Front: L R
Frequenza campionamento                 : 48,0 kHz
Frame rate                              : 31,250 FPS (1536 spf)
Profondità bit                          : 16 bit
Modo compressione                       : Con perdita
Dimensione della traccia                : 43,4MiB (9%)
Allineamento                            : Audio splittato
Durata intervallo                       : 40  ms (1,00 frame)
Intervallo pre caricamento             : 500  ms
ServiceKind/String                      : Complete Main

Audio #2
ID                                      : 2
Formato                                 : AC-3
Formato/Informazioni                    : Audio Coding 3
Impostazioni formato, Endianness        : Big
ID codec                                : 2000
Durata                                  : 31 min 38s
Modalità bitrate                        : Costante
Bitrate                                 : 384 kb/s
Canali                                  : 6 canali
Posizione canali                        : Front: L C R, Side: L R, LFE
Frequenza campionamento                 : 48,0 kHz
Frame rate                              : 31,250 FPS (1536 spf)
Profondità bit                          : 16 bit
Modo compressione                       : Con perdita
Dimensione della traccia                : 86,9MiB (18%)
Allineamento                            : Audio splittato
Durata intervallo                       : 40  ms (1,00 frame)
Intervallo pre caricamento             : 500  ms
ServiceKind/String                      : Complete Main

Generale
Nome completo                           : C:UsersuserDownloadsKidding.1x01.WEB-DLMux.XviD.Ita.Eng.Ac3.EarineKidding.1x01.WEB-DLMux.XviD.Ita.Eng.Ac3.Earine.En.srt
Formato                                 : SubRip
Dimensione                              : 41,7 KiB

Testo
Formato                                 : SubRip
Modo compressione                       : Senza perdita

Generale
Nome completo                           : C:UsersuserDownloadsKidding.1x01.WEB-DLMux.XviD.Ita.Eng.Ac3.EarineKidding.1x01.WEB-DLMux.XviD.Ita.Eng.Ac3.Earine.It.srt
Formato                                 : SubRip
Dimensione                              : 39,8 KiB

Testo
Formato                                 : SubRip
Modo compressione                       : Senza perdita

Generale
Nome completo                           : C:UsersuserDownloadsKidding.1x01.WEB-DLMux.XviD.Ita.Eng.Ac3.EarineKidding.1x01.WEB-DLMux.XviD.Ita.Eng.Ac3.Earine.srt
Formato                                 : SubRip
Dimensione                              : 2,95 KiB

Testo
Formato                                 : SubRip
Modo compressione                       : Senza perdita

[/spoiler]





[center]
]]>
http://ilcorsaronero.cc/tor/139686/Kidding_1x01_10_WEB_DLMux_XviD_Ita_Eng_Ac3_Earine http://ilcorsaronero.cc/tor/139686/Kidding_1x01_10_WEB_DLMux_XviD_Ita_Eng_Ac3_Earine Mon, 10 Dec 2018 03:17:25 +0200
counter